1. <<< **NEREGISTRIRANI čLANOVI TRENUTNO NEMOGU SKIDATI DATOTEKE I VIDJETI LINKOVE,ZA PRISTUP TREBA SE REGISTRIRATI!** >>>
    Dismiss Notice

3D Animirani Filmovi

Rasprava u 'Sinkronizirani Crtani Filmovi' pokrenuta od VLADOSCH, 26. Rujan 2013..

  1. simark

    simark Clan

    Pridružen(a):
    12. Rujan 2012.
    Poruka:
    2
    Lajkova:
    1
    Grad:
    Bg
    Le petit prince 2015 3D
    The little prince eng&cro 2015 3D BluRay HSBS x264:

    File size : 1.93 GiB
    Duration : 1h 46mn
    Nominal bit rate : 2 050 Kbps
    Width : 1 920 pixels
    Height : 820 pixels
    Language : English
    Codec ID : A_AAC
    Channel count : 6 channels
    Language : Croatian
    Codec ID : A_AC3
    Channel count : 6 channels
    This content is protected

    This content is protected
     
    seven4seven se sviđa ovo.
  2. Goran1983

    Goran1983 Clan

    Pridružen(a):
    27. Prosinac 2014.
    Poruka:
    4
    Lajkova:
    0
    Spol:
    Muškarac
    Grad:
    Pregrada
    Hvala! Izgleda da 3d više nije popularan kao prije par godina. Ako bude još nešto...preporučam se ;-)
     
  3. simark

    simark Clan

    Pridružen(a):
    12. Rujan 2012.
    Poruka:
    2
    Lajkova:
    1
    Grad:
    Bg
    This content is protected

    This content is protected

    Format : Matroska
    Format version : Version 4 / Version 2
    File size : 1.86 GiB
    Duration : 1h 26mn
    Video
    Format : AVC
    Format profile : High@L4.1
    Bit rate : 2 500 Kbps
    Width : 1 920 pixels
    Height : 808 pixels
    Frame rate : 23.976 (24000/1001) fps
    Stream size : 1.52 GiB (82%)
    Writing library : x264 core 142 r2479 dd79a61
    Language : English
    Audio #1
    Format : AAC
    Bit rate : 113 Kbps
    Channel(s) : 2 channels
    Channel positions : Front: L R
    Sampling rate : 48.0 KH
    Stream size : 70.1 MiB (4%)
    Language : English
    Audio #2
    Format : AC-3
    Bit rate : 448 Kbps
    Channel(s) : 6 channels
    Channel positions : Front: L C R, Side: L R, LFE
    Sampling rate : 48.0 KHz
    Stream size : 279 MiB (15%)
    Language : Croatian
    Text
    Format : UTF-8
    This content is protected

    This content is protected